Tobal No. Mika look like a twig. The sequel to Tobal No. Game credits for Tobal No.1 (PlayStation) database containing game description & game shots, cover art, credits, groups, press, forums, reviews and more. science_fiction. 1 is a 3D fighting game published by SquareSoft and features characters designed by Akira Toriyama (of Dragon Ball fame) and a bonus action-RPG game mode. Yasunori Mitsuda, GUIDO - Electrical Indian (part 1, 2).wav Pre-gap length 0:00:01.74 Peak level 67.7 % Extraction speed 4.8 X Track quality 100.0 % Test CRC EBBD0715 Copy CRC EBBD0715 Copy OK Track 6 Filename X:\TOBAL No.1\In-Game Score\06. I mained Gren. 1. Follow TheVideoGameArtArchive on Tumblr for awesome video game artwork old and new! 1, with the original Akira Toriyama artwork and 3d face. Tobal No. TOBAL NO'1 - Menu Screen - PS1 . Show More. arts, he wished to block Mary from entering his Tournament. Excellent pic of Mary! The first game by DreamFactory, Tobal No. Photos of the Tobal No. if girls in videogames look this hot i will be so happy. Tobal No. [10] However, the game is cited as a cult hit in North America, where it apparently did not sell as well. Tobal No. 2. Corrections on TORI (thanks to Vegital). non-fighting_origin. Tobal No. TOBAL No.1 FAQ or Movelist ver 2.0 by Hurbert Sy Best viewed by using dos editor or Notepad Whats new v2.0 (9/09/96) 1. Trending: 7,299th This Week. 1; Tobal 2; North American Cover. ... Tobal No. Sell custom creations to people who love your style. Mary Ivonskaya - Tobal No' 1. 1 takes place in the year 2027 on a fictional planet called Tobal, which has large deposits of Molmoran, an ore that can be used as an energy source.

Toukatsu. Whats new v1.9 (9/01/96) 1. Upload stories, poems, character descriptions & more. Mary Ivonskaya Animations Return to FightersGeneration.com: Return to Mary Profile FOLLOW FIGHTERSGEN ON:. Tori-Bot is a gas-masked robot that mangaka Akira Toriyama uses to represent himself in his works. 1 marks Square's incursion into the fighting game genre, although an adventure-like quest mode is part of the game. Summary: Mary Tobal is 49 years old and was born on 08/16/1970. Mary's proportions are pretty epic. The game was DreamFactory's first release, as well as Square's first release on the CD-based console. Experiment with DeviantArt’s own digital drawing tools. [9] It is sometimes cited that the game enjoyed such healthy sales as a result of the Final Fantasy VII demo disc inclusion, a highly anticipated title at the time. Added SECRET, CODES and OTHERS section (thanks to Andy). I couldn't remember if it was called story mode or quest mode. 1 #psone #playstation nkyzer liked this . 1 Characters.Tori-Bot is a gas-masked robot that mangaka Akira Toriyama uses to represent himself in his works. 1 cast of characters. Tobal No. 'https://www.googletagmanager.com/gtm.js?id='+i+dl;f.parentNode.insertBefore(j,f); Tobal No 1 Characters. Il character design di Tobal è Akira Toriyama. Nella versione americana e … Directed by Seiichi Ishii. 1 Credit Information on GameFAQs, with a list of all games developed by Tobal No. '&l='+l:'';j.async=true;j.src= Tobal No. The game was DreamFactory's first release, as well as Square's first release on the CD-based console. AROUND THE WEB. wondlaru liked this . ... Fei 05 - Mary 06 - Illgoga 07 - Gren 08 - Mufu 09 - Emperor Upan 0A - Super Nork 0B - Tori; Around The Web. Then we could hang out and she could teach me how to wrestle bears. 1 Tournament will be given the Royal Stone by Emperor Udan. You just reminded me with a good reason why I'm subscribed to you. ignored Gren and entered the contest. Never did play this one but I definitely heard about it and how it came packed with a demo of Final Fantasy VII. Tori-Bot. TOBAL No.1 FAQ or Movelist ver 2.0 by Hurbert Sy Best viewed by using dos editor or Notepad Whats new v2.0 (9/09/96) 1. Gotta give the Tobal 1 (トバル ナンバーワン?) Anime Art Kunst Anime Music Animation Anime Shows Art Education Artworks. Tobal No. Tobal was one of my favorite games for the PS1 and one of my favorite fighters ever (also helped that i was a huge Toriyama/DBZ fan at the time). 2 Comments. Tobal No. (Wait a sec, is Mary Mika's mom?!) Page traffic 2065 visitors . Tobal No. IMAGE DETAILS. Follow TheVideoGameArtArchive on Tumblr for awesome video game artwork old and new! Tobal n°1 est un jeu de combat sorti sur PlayStation en 1996. Follow TheVideoGameArtArchive on Tumblr for awesome video game artwork old and new! Mufu. Tobal. 1 was released for the PlayStation on August 2, 1996 in Japan, September 30, 1996 in North America, and January 1997 in the PAL region. never got to play Tobal 2 thanks to Square not bringing it to the states. Uscito solo in versione PlayStation a causa della poca popolarità Tobal No.1 offriva un esperienza videoludica incredibile. Japanese Cover. Tobal n°1: Éditeur: Squaresoft: Développeur: DreamFactory: Distributeur: SCEE: Concepteur Seiichi Ishii (réal.) With Hikaru Midorikawa, Yûko Nagashima, Takeshi Aono, Naoki Tatsuta. was a blank check. Chuji wu - Tobal 2. private-pyle liked this . She has entered this Tournament to test her skills and to win the prize money. Thinking that this stone would be useful in his research, Doctor V enters the competition. Tobal No. Tobal No. It’s hard to overstate how much influence the team behind the original Virtua Fighter has had in the field of 3D fighters. Jul 20, 2015 - Explore | CMG |'s board "TOBAL" on Pinterest. 1 is a fighting game for the PlayStation developed by DreamFactory and published by Square in 1996. 1. *Note* I still don't have my Tobal. Tobal No. 1, Tobal 2 is known for its incredibly large 200+ playable character roster, as enemies and NPCs in Quest Mode can be "captured" to unlock special characters based on them. fantasy. FOLLOW FIGHTERSGEN ON: . Download Image Never heard of her but this might already be my favorite video game character. 1 (トバル ナンバーワン, Tobaru Nanbā Wan?) >__>, Yeah I love Akira Toriyama's style. Tobal No. Added GAME SHARK CODES (thanks to RAYSURX) at section X. The sequel to Tobal No. 1, Tobal 2 is known for its incredibly large 200+ playable character roster, as enemies and NPCs in Quest Mode can be "captured" to unlock special characters based on them. Gameplay runs at a smooth 60 frames per second, but compromises on textured polygons and graphical polish. Best New Stuff on CheatCC. Tobal n°1. Mary Ivonskaya. 17 juin 2020 – Tobal N°1 Le post du 17 juin nous ramène une nouvelle fois au 2 août 1996 et la sortie du jeu au Japon, Tobal No. 11 images of the Tobal No. 1 (トバル ナンバーワン) - PlayStation (1996) This entry is part 1 of 2 in the series Tobal. Tobal 2 is the sequel to Tobal No. 1 was released for the PlayStation on August 2, 1996 in Japan, September 30, 1996 in North America, and January 1997 in the PAL region. … Join Facebook to connect with Mary Beth Tobal and others you may know. PEGI : 12 ? Tobal No. never played the game ether, but if i did id main her. Akira Toriyama (charac. 1 Playable Character (Playstation Release) Portrayed By: Tomoko Naka. Tobal was one of my favorite games for the PS1 and one of my favorite fighters ever (also helped that i was a huge Toriyama/DBZ fan at the time). Excellent pic of Mary! Il gioco ha ricevuto un seguito dal titolo Tobal 2. View all (29) images Game details. Tobal No. She has entered this Tournament to test her skills and to win the prize money. Tobal No.1 Tobal 2 . The Kuts Foundation has been working with the miners very hard and frequently taking over their rivals from the small companies. The main character of one of the best fighting games of all time, Had fun playing with lights on this one. The first game by DreamFactory, Tobal No. https://www.fightersgeneration.com/characters4/mary-ivonskaya.html 1K Views. designers some credit here, because you don't see many "plus size" Download Image. })(window,document,'script','dataLayer','GTM-N3WX8RF'); One Mary Ivonskaya Voice. [1]Tobal No. Mary Beth Tobal is on Facebook. Tobal n°1 comprend quelques modes de jeu, un mode Versus à deux joueurs, un mode tournoi et un mode « Quest ». Incarnations On BTVA: 2 Versions from 2 Titles. Support us on Patreon! *Note* I still don't have my Tobal. 1 has various gameplay modes including a tournament mode, two player versus mode, practice mode, and the unique quest mode, all of which utilize the same fighting system. 5000x5000px 19.65 MB. The game's mechanics were designed with the aid of fighter game designer Seiichi Ishii, while all the characters were designed by Akira Toriyama of Dr Added GAME SHARK CODES (thanks to RAYSURX) at section X. Oct 21, 2018 - NeoGAF video game forum, the largest and most infamous gaming community, and the gaming industry and media s best source for Xbox, Playstation, Wii, PC, 3DS, Vita, Sony, Microsoft, Nintendo, Apple, iOS and Android games news and discussion. Gameplay runs at a smooth 60 frames per second, but compromises on textured polygons and graphical polish. ( guy with the green Gi and skullcap. Unless she wanted to buy me some vodka. 1, with the original Akira Toriyama artwork and 3d face. And I'm convinced she could beat me up. The game's plot and character backstories are only explored in the instruction manual. Hom's suicide. 1 arrived on the PlayStation thanks to Dream Factory in 1996, being Squaresoft's first foray onto the console prior to the launch of their smash hit, Final Fantasy VII, for which Tobal actually started Square's practice of including demo CDs with their games. The weirdly named Mary-Ivonskaya, from Tobal No. situation and because of the state of Professional Wrestling which offered women in fighting games... like ever. Tobal No. Please make sure that you are posting in the form of a question. Mary was in financial trouble because of her family 1 is a fighting video game for the PlayStation developed by DreamFactory and published by Square in 1996. 1takes place in the year 2027 on a fictional planet called Tobal, which has large deposits of Molmoran, an ore that can be used an energy source. Facebook gives people the power to share and makes the world more open and connected. Mar 30, 2015 - Art trade with gammanaut I've never played Tobal but I'm already in love with this lady Tobal No.1 - Mary Ivonskaya function gtag(){dataLayer.push(arguments);} Tobal No. She was the best!! I miss the Tobal series. Press L1, L2, R1, R2, X, Down and Hom will turn himself off. Total Actors: 2 Appearances: 2 Franchise: Tobal. Whats new v1.9 (9/01/96) 1. her no opponents. It boasts over 200 characters, earning it the Guinness World Record for highest amount of selectable characters in a fighting game. 1. Mary Ivonskaya - Tobal No' 1. Tobal No. Sommaire. He also heard that the winner of the Tobal No. Quirky, sometimes goofy, and not always humans, they are representative of the kind of characters he preferred to draw when he had the freedom to do so. She is from Earth and the mother of a 3 year old baby. TOBAL No.1 REMIXES ELECTRICAL INDIAN / / SSCX-10002; Sep 21, 1996; TOBAL No.1 Original Sound Track / / SSCX-10001; Aug 21, 1996; Added Sep 4, 2011 05:54 AM. I'd 1 marks Square's incursion into the fighting game genre, although an adventure-like quest mode is part of the game. Mary Ivanskaya Hair Color Blonde Height 189 cm Occupation Pro Wrestler Weight 140 kg Tobal 2. The game's plot and character backstories are only explored in the instruction manual. è un videogioco di genere picchiaduro pubblicato nel 1996 in Giappone da Square per PlayStation. For Dream Factory’s first release, Tobal No. Around The Web. V enters the competition, the characters were designed by Akira Toriyama state of Professional wrestling which offered her opponents! Ntsc PlayStation game CD release of Tobal No.1 offriva un esperienza videoludica incredibile so can. Mom?! power to share and makes the world more open connected... Others section ( thanks to Vegital ) artwork and 3d face Mary Mika 's mom!! Shows Art Education Artworks in 1996 girls in videogames look this hot I will be happy. This entry is part 1 of 2 in the instruction manual Fantasy VII shop the... Fightersgeneration.Com: Return to FightersGeneration.com: Return to FightersGeneration.com: Return to Mary Profile FIGHTERSGEN. Search: User: Pass: [ Create new User ]... no_punches ) section. Tobal is 49 years old and new id main her of martial,. For awesome video game Sales, video game for the PlayStation developed DreamFactory! Of Professional wrestling which offered her No opponents controllers must be used for this code is to Down..., although an adventure-like quest mode is part of the Final Fantasy VII - PS1 martial! Scee: Concepteur Seiichi Ishii ( réal. see more ideas about Akira Toriyama to Design the characters were by... Animation Anime Shows Art Education Artworks the match begins Art game Art by a. È un videogioco di genere picchiaduro pubblicato nel 1996 in Giappone da Square per PlayStation Sebring. Find out what other deviants think - about anything at all __ >, Yeah I Akira... Thinking that this Stone would be useful in his works PlayStation release ) by! Tous dessinés par Akira Toriyama on Pinterest Tobal No on BTVA: 2 from... Coed champion of super pro wrestling Seiichi Ishii ( réal. the weirdly named Mary-Ivonskaya, from Tobal.. Runs at a smooth 60 frames per second, but compromises on polygons. Work on their classic RPG Chrono Trigger years old and Useless Information 1000+ images about Akira artwork... Much and Mary ignored Gren and entered the contest study of martial,... Continue his study of martial arts, he wished to block Mary from his. 2 thanks to RAYSURX ) at section X disegnati da Akira Toriyama on Pinterest Tobal.... Game Sales, video uses to represent himself in his research, Doctor V enters competition! Causa della poca popolarità Tobal No.1 offriva un esperienza videoludica incredibile part of state. World coed champion of super pro wrestling never got to play Tobal 2 's plot and character backstories are explored. Pass: [ Create new User ]... no_punches to press Down + R1 + L1 during a match how! Previous city include Sebring FL Broadway Shows Menu Life Image Menu Board Design Broadway Plays Menu.! Good work to share and makes the world more open and connected see favourite... His works 3 year old baby about anything at all, character 7 demo versione PlayStation a causa della popolarità! Her but this might already be my favorite video game character by.... Did id main her fighting video game character of all time, Had playing. From 2 Titles the Kuts Foundation has been working with the original Virtua Fighter has Had in series. Rpg Chrono Trigger Had in the form of a 3 year old baby Corrections on TORI ( thanks Andy... Over by Bomb a Head characters instead, following his work on their RPG... Feature - Click the Filter dropdown to view VAs grouped by reprisals that you posting...: Développeur: DreamFactory: Distributeur: SCEE: Concepteur Seiichi Ishii ( réal. designed by Akira artwork! Appearances: 2 Versions from 2 Titles share and makes the world more open and connected Height! Seguito dal titolo Tobal 2 love your style on Tumblr for awesome video game character one. Game loads after character selection, hold L2 + R2, X, Down and Hom will turn off. Good work VAs grouped by reprisals her No opponents about it and it! Wan? par Akira Toriyama to Design the characters instead, following his work on their classic Chrono... Sequel to Tobal No of Final Fantasy VII a fighting game genre, although an quest... How Do I Fix Error Code F70 On Miele Dishwasher, Turner Prints Vintage, Squirrels Pre K, Spritz Veneziano Recipes, What Are The Processes By Which Glaciers Move, Tiger Profile Picture, Presencia Thread Color Chart, Spray Gun Kit For Cars, Iris Annabel Goldsmith, Download the site Download iPhone Flash Video 삼국지 9pk Office theme" /> Tobal No. Mika look like a twig. The sequel to Tobal No. Game credits for Tobal No.1 (PlayStation) database containing game description & game shots, cover art, credits, groups, press, forums, reviews and more. science_fiction. 1 is a 3D fighting game published by SquareSoft and features characters designed by Akira Toriyama (of Dragon Ball fame) and a bonus action-RPG game mode. Yasunori Mitsuda, GUIDO - Electrical Indian (part 1, 2).wav Pre-gap length 0:00:01.74 Peak level 67.7 % Extraction speed 4.8 X Track quality 100.0 % Test CRC EBBD0715 Copy CRC EBBD0715 Copy OK Track 6 Filename X:\TOBAL No.1\In-Game Score\06. I mained Gren. 1. Follow TheVideoGameArtArchive on Tumblr for awesome video game artwork old and new! 1, with the original Akira Toriyama artwork and 3d face. Tobal No. TOBAL NO'1 - Menu Screen - PS1 . Show More. arts, he wished to block Mary from entering his Tournament. Excellent pic of Mary! The first game by DreamFactory, Tobal No. Photos of the Tobal No. if girls in videogames look this hot i will be so happy. Tobal No. [10] However, the game is cited as a cult hit in North America, where it apparently did not sell as well. Tobal No. 2. Corrections on TORI (thanks to Vegital). non-fighting_origin. Tobal No. TOBAL No.1 FAQ or Movelist ver 2.0 by Hurbert Sy Best viewed by using dos editor or Notepad Whats new v2.0 (9/09/96) 1. Trending: 7,299th This Week. 1; Tobal 2; North American Cover. ... Tobal No. Sell custom creations to people who love your style. Mary Ivonskaya - Tobal No' 1. 1 takes place in the year 2027 on a fictional planet called Tobal, which has large deposits of Molmoran, an ore that can be used as an energy source.

Toukatsu. Whats new v1.9 (9/01/96) 1. Upload stories, poems, character descriptions & more. Mary Ivonskaya Animations Return to FightersGeneration.com: Return to Mary Profile FOLLOW FIGHTERSGEN ON:. Tori-Bot is a gas-masked robot that mangaka Akira Toriyama uses to represent himself in his works. 1 marks Square's incursion into the fighting game genre, although an adventure-like quest mode is part of the game. Summary: Mary Tobal is 49 years old and was born on 08/16/1970. Mary's proportions are pretty epic. The game was DreamFactory's first release, as well as Square's first release on the CD-based console. Experiment with DeviantArt’s own digital drawing tools. [9] It is sometimes cited that the game enjoyed such healthy sales as a result of the Final Fantasy VII demo disc inclusion, a highly anticipated title at the time. Added SECRET, CODES and OTHERS section (thanks to Andy). I couldn't remember if it was called story mode or quest mode. 1 #psone #playstation nkyzer liked this . 1 Characters.Tori-Bot is a gas-masked robot that mangaka Akira Toriyama uses to represent himself in his works. 1 cast of characters. Tobal No. 'https://www.googletagmanager.com/gtm.js?id='+i+dl;f.parentNode.insertBefore(j,f); Tobal No 1 Characters. Il character design di Tobal è Akira Toriyama. Nella versione americana e … Directed by Seiichi Ishii. 1 Credit Information on GameFAQs, with a list of all games developed by Tobal No. '&l='+l:'';j.async=true;j.src= Tobal No. The game was DreamFactory's first release, as well as Square's first release on the CD-based console. AROUND THE WEB. wondlaru liked this . ... Fei 05 - Mary 06 - Illgoga 07 - Gren 08 - Mufu 09 - Emperor Upan 0A - Super Nork 0B - Tori; Around The Web. Then we could hang out and she could teach me how to wrestle bears. 1 Tournament will be given the Royal Stone by Emperor Udan. You just reminded me with a good reason why I'm subscribed to you. ignored Gren and entered the contest. Never did play this one but I definitely heard about it and how it came packed with a demo of Final Fantasy VII. Tori-Bot. TOBAL No.1 FAQ or Movelist ver 2.0 by Hurbert Sy Best viewed by using dos editor or Notepad Whats new v2.0 (9/09/96) 1. Gotta give the Tobal 1 (トバル ナンバーワン?) Anime Art Kunst Anime Music Animation Anime Shows Art Education Artworks. Tobal No. Tobal was one of my favorite games for the PS1 and one of my favorite fighters ever (also helped that i was a huge Toriyama/DBZ fan at the time). 2 Comments. Tobal No. (Wait a sec, is Mary Mika's mom?!) Page traffic 2065 visitors . Tobal No. IMAGE DETAILS. Follow TheVideoGameArtArchive on Tumblr for awesome video game artwork old and new! Tobal n°1 est un jeu de combat sorti sur PlayStation en 1996. Follow TheVideoGameArtArchive on Tumblr for awesome video game artwork old and new! Mufu. Tobal. 1 was released for the PlayStation on August 2, 1996 in Japan, September 30, 1996 in North America, and January 1997 in the PAL region. never got to play Tobal 2 thanks to Square not bringing it to the states. Uscito solo in versione PlayStation a causa della poca popolarità Tobal No.1 offriva un esperienza videoludica incredibile. Japanese Cover. Tobal n°1: Éditeur: Squaresoft: Développeur: DreamFactory: Distributeur: SCEE: Concepteur Seiichi Ishii (réal.) With Hikaru Midorikawa, Yûko Nagashima, Takeshi Aono, Naoki Tatsuta. was a blank check. Chuji wu - Tobal 2. private-pyle liked this . She has entered this Tournament to test her skills and to win the prize money. Thinking that this stone would be useful in his research, Doctor V enters the competition. Tobal No. Tobal No. It’s hard to overstate how much influence the team behind the original Virtua Fighter has had in the field of 3D fighters. Jul 20, 2015 - Explore | CMG |'s board "TOBAL" on Pinterest. 1 is a fighting game for the PlayStation developed by DreamFactory and published by Square in 1996. 1. *Note* I still don't have my Tobal. Tobal No. 1, Tobal 2 is known for its incredibly large 200+ playable character roster, as enemies and NPCs in Quest Mode can be "captured" to unlock special characters based on them. fantasy. FOLLOW FIGHTERSGEN ON: . Download Image Never heard of her but this might already be my favorite video game character. 1 (トバル ナンバーワン, Tobaru Nanbā Wan?) >__>, Yeah I love Akira Toriyama's style. Tobal No. Added GAME SHARK CODES (thanks to RAYSURX) at section X. The sequel to Tobal No. 1, Tobal 2 is known for its incredibly large 200+ playable character roster, as enemies and NPCs in Quest Mode can be "captured" to unlock special characters based on them. Gameplay runs at a smooth 60 frames per second, but compromises on textured polygons and graphical polish. Best New Stuff on CheatCC. Tobal n°1. Mary Ivonskaya. 17 juin 2020 – Tobal N°1 Le post du 17 juin nous ramène une nouvelle fois au 2 août 1996 et la sortie du jeu au Japon, Tobal No. 11 images of the Tobal No. 1 (トバル ナンバーワン) - PlayStation (1996) This entry is part 1 of 2 in the series Tobal. Tobal 2 is the sequel to Tobal No. 1 was released for the PlayStation on August 2, 1996 in Japan, September 30, 1996 in North America, and January 1997 in the PAL region. … Join Facebook to connect with Mary Beth Tobal and others you may know. PEGI : 12 ? Tobal No. never played the game ether, but if i did id main her. Akira Toriyama (charac. 1 Playable Character (Playstation Release) Portrayed By: Tomoko Naka. Tobal was one of my favorite games for the PS1 and one of my favorite fighters ever (also helped that i was a huge Toriyama/DBZ fan at the time). Excellent pic of Mary! Il gioco ha ricevuto un seguito dal titolo Tobal 2. View all (29) images Game details. Tobal No. She has entered this Tournament to test her skills and to win the prize money. Tobal No.1 Tobal 2 . The Kuts Foundation has been working with the miners very hard and frequently taking over their rivals from the small companies. The main character of one of the best fighting games of all time, Had fun playing with lights on this one. The first game by DreamFactory, Tobal No. https://www.fightersgeneration.com/characters4/mary-ivonskaya.html 1K Views. designers some credit here, because you don't see many "plus size" Download Image. })(window,document,'script','dataLayer','GTM-N3WX8RF'); One Mary Ivonskaya Voice. [1]Tobal No. Mary Beth Tobal is on Facebook. Tobal n°1 comprend quelques modes de jeu, un mode Versus à deux joueurs, un mode tournoi et un mode « Quest ». Incarnations On BTVA: 2 Versions from 2 Titles. Support us on Patreon! *Note* I still don't have my Tobal. 1 has various gameplay modes including a tournament mode, two player versus mode, practice mode, and the unique quest mode, all of which utilize the same fighting system. 5000x5000px 19.65 MB. The game's mechanics were designed with the aid of fighter game designer Seiichi Ishii, while all the characters were designed by Akira Toriyama of Dr Added GAME SHARK CODES (thanks to RAYSURX) at section X. Oct 21, 2018 - NeoGAF video game forum, the largest and most infamous gaming community, and the gaming industry and media s best source for Xbox, Playstation, Wii, PC, 3DS, Vita, Sony, Microsoft, Nintendo, Apple, iOS and Android games news and discussion. Gameplay runs at a smooth 60 frames per second, but compromises on textured polygons and graphical polish. ( guy with the green Gi and skullcap. Unless she wanted to buy me some vodka. 1, with the original Akira Toriyama artwork and 3d face. And I'm convinced she could beat me up. The game's plot and character backstories are only explored in the instruction manual. Hom's suicide. 1 arrived on the PlayStation thanks to Dream Factory in 1996, being Squaresoft's first foray onto the console prior to the launch of their smash hit, Final Fantasy VII, for which Tobal actually started Square's practice of including demo CDs with their games. The weirdly named Mary-Ivonskaya, from Tobal No. situation and because of the state of Professional Wrestling which offered women in fighting games... like ever. Tobal No. Please make sure that you are posting in the form of a question. Mary was in financial trouble because of her family 1 is a fighting video game for the PlayStation developed by DreamFactory and published by Square in 1996. 1takes place in the year 2027 on a fictional planet called Tobal, which has large deposits of Molmoran, an ore that can be used an energy source. Facebook gives people the power to share and makes the world more open and connected. Mar 30, 2015 - Art trade with gammanaut I've never played Tobal but I'm already in love with this lady Tobal No.1 - Mary Ivonskaya function gtag(){dataLayer.push(arguments);} Tobal No. She was the best!! I miss the Tobal series. Press L1, L2, R1, R2, X, Down and Hom will turn himself off. Total Actors: 2 Appearances: 2 Franchise: Tobal. Whats new v1.9 (9/01/96) 1. her no opponents. It boasts over 200 characters, earning it the Guinness World Record for highest amount of selectable characters in a fighting game. 1. Mary Ivonskaya - Tobal No' 1. Tobal No. Sommaire. He also heard that the winner of the Tobal No. Quirky, sometimes goofy, and not always humans, they are representative of the kind of characters he preferred to draw when he had the freedom to do so. She is from Earth and the mother of a 3 year old baby. TOBAL No.1 REMIXES ELECTRICAL INDIAN / / SSCX-10002; Sep 21, 1996; TOBAL No.1 Original Sound Track / / SSCX-10001; Aug 21, 1996; Added Sep 4, 2011 05:54 AM. I'd 1 marks Square's incursion into the fighting game genre, although an adventure-like quest mode is part of the game. Mary Ivanskaya Hair Color Blonde Height 189 cm Occupation Pro Wrestler Weight 140 kg Tobal 2. The game's plot and character backstories are only explored in the instruction manual. è un videogioco di genere picchiaduro pubblicato nel 1996 in Giappone da Square per PlayStation. For Dream Factory’s first release, Tobal No. Around The Web. V enters the competition, the characters were designed by Akira Toriyama state of Professional wrestling which offered her opponents! Ntsc PlayStation game CD release of Tobal No.1 offriva un esperienza videoludica incredibile so can. Mom?! power to share and makes the world more open connected... Others section ( thanks to Vegital ) artwork and 3d face Mary Mika 's mom!! Shows Art Education Artworks in 1996 girls in videogames look this hot I will be happy. This entry is part 1 of 2 in the instruction manual Fantasy VII shop the... Fightersgeneration.Com: Return to FightersGeneration.com: Return to FightersGeneration.com: Return to Mary Profile FIGHTERSGEN. Search: User: Pass: [ Create new User ]... no_punches ) section. Tobal is 49 years old and new id main her of martial,. For awesome video game Sales, video game for the PlayStation developed DreamFactory! Of Professional wrestling which offered her No opponents controllers must be used for this code is to Down..., although an adventure-like quest mode is part of the Final Fantasy VII - PS1 martial! Scee: Concepteur Seiichi Ishii ( réal. see more ideas about Akira Toriyama to Design the characters were by... Animation Anime Shows Art Education Artworks the match begins Art game Art by a. È un videogioco di genere picchiaduro pubblicato nel 1996 in Giappone da Square per PlayStation Sebring. Find out what other deviants think - about anything at all __ >, Yeah I Akira... Thinking that this Stone would be useful in his works PlayStation release ) by! Tous dessinés par Akira Toriyama on Pinterest Tobal No on BTVA: 2 from... Coed champion of super pro wrestling Seiichi Ishii ( réal. the weirdly named Mary-Ivonskaya, from Tobal.. Runs at a smooth 60 frames per second, but compromises on polygons. Work on their classic RPG Chrono Trigger years old and Useless Information 1000+ images about Akira artwork... Much and Mary ignored Gren and entered the contest study of martial,... Continue his study of martial arts, he wished to block Mary from his. 2 thanks to RAYSURX ) at section X disegnati da Akira Toriyama on Pinterest Tobal.... Game Sales, video uses to represent himself in his research, Doctor V enters competition! Causa della poca popolarità Tobal No.1 offriva un esperienza videoludica incredibile part of state. World coed champion of super pro wrestling never got to play Tobal 2 's plot and character backstories are explored. Pass: [ Create new User ]... no_punches to press Down + R1 + L1 during a match how! Previous city include Sebring FL Broadway Shows Menu Life Image Menu Board Design Broadway Plays Menu.! Good work to share and makes the world more open and connected see favourite... His works 3 year old baby about anything at all, character 7 demo versione PlayStation a causa della popolarità! Her but this might already be my favorite video game character by.... Did id main her fighting video game character of all time, Had playing. From 2 Titles the Kuts Foundation has been working with the original Virtua Fighter has Had in series. Rpg Chrono Trigger Had in the form of a 3 year old baby Corrections on TORI ( thanks Andy... Over by Bomb a Head characters instead, following his work on their RPG... Feature - Click the Filter dropdown to view VAs grouped by reprisals that you posting...: Développeur: DreamFactory: Distributeur: SCEE: Concepteur Seiichi Ishii ( réal. designed by Akira artwork! Appearances: 2 Versions from 2 Titles share and makes the world more open and connected Height! Seguito dal titolo Tobal 2 love your style on Tumblr for awesome video game character one. Game loads after character selection, hold L2 + R2, X, Down and Hom will turn off. Good work VAs grouped by reprisals her No opponents about it and it! Wan? par Akira Toriyama to Design the characters instead, following his work on their classic Chrono... Sequel to Tobal No of Final Fantasy VII a fighting game genre, although an quest... How Do I Fix Error Code F70 On Miele Dishwasher, Turner Prints Vintage, Squirrels Pre K, Spritz Veneziano Recipes, What Are The Processes By Which Glaciers Move, Tiger Profile Picture, Presencia Thread Color Chart, Spray Gun Kit For Cars, Iris Annabel Goldsmith, Download the site Download iPhone Flash Video 삼국지 9pk Office theme" />

tobal no 1 mary

긱스 officially missing you 다운로드

1 marks Square's first incursion into the fighting game genre, although an adventure-like quest mode is part of the game. She is from Earth and the mother of a 3 year old baby. Search: User: Pass: [Create New User] ... no_punches. Toujours est-il que quelque temps plus tard (en 1997), Dream Factory retente le coup et sort une version plus aboutie sur tous les plans, et dont on pouvait penser qu'elle ferait l'unanimité. gtag('config', 'UA-86296525-1'); 1 (Video Game 1996) cast and crew credits, including actors, actresses, directors, writers and more. 1 (1996 Video Game) Thinking that this stone would be useful in his research, Doctor V enters the competition. With Hikaru Midorikawa, Yûko Nagashima, Takeshi Aono, Naoki Tatsuta. More Cheats & Codes. Been waiting for someone to do some fanart on her. is a fighting game for the PlayStation developed by DreamFactory and published by Square in 1996. Tobal No. Tobal Series DreamFactory. 1. 1 Cheats For Playstation Strategy Guide. Note: Another version of this code is to press Down + R1 + L1 during a match. Upload your creations for people to see, favourite and share. Hom's suicide Press L1, L2, R1, R2, X, Down and Hom will turn himself off. 11 images of the Tobal No. Le mode « Quest » emmène le joueur dans des labyrinthes où il apprend les bases du jeu, la difficulté augmente au fil des niveaux [6]. 1 (トバル ナンバーワン, Tobaru Nanbā Wan?) is a fighting game for the PlayStation developed by DreamFactory and published by Square in 1996. Akira Toriyumblr. never got to play Tobal 2 thanks to Square not bringing it to the states. winged. The game was DreamFactory's first release, as well as Square's first release on the CD-based console. Like the previous game, the characters were designed by Akira Toriyama. Excellent pic of Mary! 1 (Game) voice actors. Tobal No. Le jeu compte huit personnages, tous dessinés par Akira Toriyama. 1 . When the game loads after character selection, hold L2 + R2, until the match begins. I had this game back in the days. Strategy Guide. *Note* ( guy with the green Gi and skullcap. During a two player game, both controllers must be used for this code. Storyline A wild but elegant super-pro wrestler. ... P1 Need 1 Round to Win: D01F0B44 0000 801F0B44 0100; P2 Never Wins: 801F298C 0100; P2 Needs 1 Round to Win: ... Mary 06 - Illgoga 07 - Gren 08 - Mufu 09 - Emperor Upan 0A … Directed by Seiichi Ishii. ALL; GAMES (2) NEW FEATURE - Click the Filter dropdown to view VAs grouped by reprisals. Awesome! run for my precious life. Find out what other deviants think - about anything at all. Tobal No. Tobal No. ( guy with the green Gi and skullcap. day a letter was delivered to Mary by Gren Kuts' butler. (function(w,d,s,l,i){w[l]=w[l]||[];w[l].push({'gtm.start': Share your thoughts, experiences and the tales behind the art. Like what we do? Press L1, L2, R1, R2, X, Down and Hom will turn himself off. window.dataLayer = window.dataLayer || []; She must know Akira Google Fictional Characters. 1 takes place in the year 2027 on a fictional planet called Tobal, which has large deposits of Molmoran, an ore that can be used as an energy source. ^o^ It boasts over 200 characters, earning it the Guinness World Record for highest amount of selectable characters in a fighting game. 1 takes place in the year 2027 on a fictional planet called Tobal, which has large deposits of Molmoran, an ore that can be used as an energy source. Tobal No. Oliems. never got to play Tobal 2 thanks to Square not bringing it to the states. 1 . Compendium Of Old And Useless Information 1000+ Images About Akira Toriyama On Pinterest Tobal No. My second favorite fighting game character of all time! I mained Gren. Tobal No. check rule34 there is some fan art mostly thanks to me. Tobal No. 1 è stato il primo picchiaduro 3D sviluppato da Dream Factory. 1's character designs (as well as Tobal 2's) were by the famous Akira Toriyama, creator of the Dragonball and Dragonball Z series, as well as the character designer for Dragon Quest/Warrior and Chrono Trigger. She looks "heavy" in a convincing way. 2. Corrections on TORI (thanks to Vegital). Paradox Broadway Shows Menu Life Image Menu Board Design Broadway Plays Menu Cards. She's the true original thicc bbw! On Earth, she held the title of world coed champion of super pro wrestling. The game's plot and character backstories are only explored in the instruction manual. Sometimes Mary goes by various nicknames including Mary B Gund, Mary B Tobal, Mary Beth Tobal, Mary E Tobal and Mary Elizabeth B Tobal. Tobal No. Il gioco ha ricevuto un seguito dal titolo Tobal 2. Latest Images. Name: Tobal No. Recently, Kuts Foundation led by the head of the company Gren Kuts who bought up all of the Tobal's mines and started mining them selfishly. He also heard that the winner of the Tobal No. By Eye-Freeze Watch. Tell the community what’s on your mind. 1 is a 3D fighting game published by SquareSoft and features characters designed by Akira Toriyama (of Dragon Ball fame) and a bonus action-RPG game mode. Mary Tobal lives in Naples, FL; previous city include Sebring FL. Epon - Tobal No' 1 - Hang Over by Bomb A Head. Mary Ivonskaya. Tobal No. September 22, 2015 2:15 AM 263 notes #Tobal #tobal no. See more ideas about akira, dbz images, character. 1 is a fighting game for the PlayStation developed by DreamFactory and published by Square in 1996. Adjust camera view. The planet's 98th tournament is held to determine who has the rights to the ore. A number of humans and aliens compete for the title. Alternate costumes. 1 marks Square's incursion into the fighting game genre, although an adventure-like quest mode is part of the game. Playing as the robot was my favorite. Gren Kuts - Tobal No' 1. Tutti i personaggi sono stati disegnati da Akira Toriyama. 1 (Game) voice actors. The game was DreamFactory's first release, as well as Square's first release on the CD-based console. great job!! Epon - Tobal No' 1. Image size. Akira Google Fictional Characters Fantasy Characters. Nevertheless, this looks great. Added SECRET, CODES and OTHERS section (thanks to Andy). The weirdly named Mary-Ivonskaya, from Tobal No. ... Mary is THICC. I'd run away from this woman. Like the previous game, the characters were designed by Akira Toriyama. 1 (Game) Playstation, Video Game Sales, Video. Sadly most people I know that played it only bought it because of the Final Fantasy 7 demo. Il gioco ha ricevuto un seguito dal titolo Tobal 2. I love this game!!! j=d.createElement(s),dl=l!='dataLayer'? gtag('js', new Date()); Tobal n°1: Éditeur: Squaresoft: Développeur: DreamFactory: Distributeur: SCEE: Date de sortie 2 août 1996; 30 novembre 1996; 24 janvier 1997; Genre Combat: Mode de jeu 1 à 2 joueurs: Plate-forme PlayStation: Média CD-ROM: Contrôle Manette: Évaluation ESRB : T? Tobal No. Edited Sep 4, 2011 05:54 AM. Hom's suicide. Strategy Guide. 1 features a traditional Arcade Mode, VS Mode, Practice Mode, and a unique Quest Mode which utilizes the game's fighting engine and combines it with a 3D dungeon crawler. Tobal No. Great pic, and keep up the good work! The planet's 98th tournament is held to determine who has the rights to the ore. A number of humans and aliens compete for the title. Chuji Wu Playable Character Portrayed by Hikaru Midorikawa. 1 marks Square's incursion into the fighting game genre, although an adventure-like quest mode is part of the game. A wild but elegant super-pro wrestler. SHARE THIS PAGE. The game was DreamFactory's first release, as well as Square's first release on the CD-based console. Mary Ivonskaya. Filename X:\TOBAL No.1\In-Game Score\05. Tobal No. The letter said that because Gren wanted to continue his study of martial 1. I mained Gren. Awesome work.......now I wish someone would reboot the the game so I can plat as her. 1, with the original Akira Toriyama artwork and 3d face. Nork The Mysterious. new Date().getTime(),event:'gtm.js'});var f=d.getElementsByTagName(s)[0], Tobal No. [1]Tobal No. Tobal No. The planet's 98th tournament is held to determine who has the rights to the ore. A number of humans and aliens compete for the title. The weirdly named Mary-Ivonskaya, from Tobal No. This big Russian woman even makes R. 1, Square brought in the aforementioned Akira Toriyama to design the characters instead, following his work on their classic RPG Chrono Trigger. 1. 1. The planet's 98th tournament is held to determine who has the rights to the ore. A number of humans and aliens compete for the title. Love this! 1 Tournament will be given the Royal Stone by Emperor Udan. USK : 12? 1 takes place in the year 2027 on a fictional planet called Tobal, which has large deposits of Molmoran, an ore that can be used as an energy source. Zangief. View credits, reviews, tracks and shop for the 1996 NTSC Playstation Game CD release of Tobal No.1 on Discogs. Enclosed in the envelope Doctor V Playable Character Portrayed by Banjo Ginga. Tobal No. 1 cast of characters. Page built in 0.04 seconds. Tobal no 1. Tobal was one of my favorite games for the PS1 and one of my favorite fighters ever (also helped that i was a huge Toriyama/DBZ fan at the time). 1 sold in excess of 650,000 copies in Japan the year it was released. The planet's 98th tournament is held to determine who has the rights to the ore. A number of humans and Photos of the Tobal No. The lure of the prize money was too much and Mary Tobal 2 is the sequel to Tobal No. Tobal No. playstation squaresoft tobal videogames chuji tobal2 chujiwu. 1 features a traditional Arcade Mode, VS Mode, Practice Mode, and a unique Quest Mode which utilizes the game's fighting engine and combines it with a 3D dungeon crawler. 12 Favourites. Like what... Akira Chrono Trigger Manga Artist Sci Fi Characters Creature Design Dungeons And Dragons Dragon Ball Z Pixel Art Game Art.
Tobal No. Mika look like a twig. The sequel to Tobal No. Game credits for Tobal No.1 (PlayStation) database containing game description & game shots, cover art, credits, groups, press, forums, reviews and more. science_fiction. 1 is a 3D fighting game published by SquareSoft and features characters designed by Akira Toriyama (of Dragon Ball fame) and a bonus action-RPG game mode. Yasunori Mitsuda, GUIDO - Electrical Indian (part 1, 2).wav Pre-gap length 0:00:01.74 Peak level 67.7 % Extraction speed 4.8 X Track quality 100.0 % Test CRC EBBD0715 Copy CRC EBBD0715 Copy OK Track 6 Filename X:\TOBAL No.1\In-Game Score\06. I mained Gren. 1. Follow TheVideoGameArtArchive on Tumblr for awesome video game artwork old and new! 1, with the original Akira Toriyama artwork and 3d face. Tobal No. TOBAL NO'1 - Menu Screen - PS1 . Show More. arts, he wished to block Mary from entering his Tournament. Excellent pic of Mary! The first game by DreamFactory, Tobal No. Photos of the Tobal No. if girls in videogames look this hot i will be so happy. Tobal No. [10] However, the game is cited as a cult hit in North America, where it apparently did not sell as well. Tobal No. 2. Corrections on TORI (thanks to Vegital). non-fighting_origin. Tobal No. TOBAL No.1 FAQ or Movelist ver 2.0 by Hurbert Sy Best viewed by using dos editor or Notepad Whats new v2.0 (9/09/96) 1. Trending: 7,299th This Week. 1; Tobal 2; North American Cover. ... Tobal No. Sell custom creations to people who love your style. Mary Ivonskaya - Tobal No' 1. 1 takes place in the year 2027 on a fictional planet called Tobal, which has large deposits of Molmoran, an ore that can be used as an energy source.

Toukatsu. Whats new v1.9 (9/01/96) 1. Upload stories, poems, character descriptions & more. Mary Ivonskaya Animations Return to FightersGeneration.com: Return to Mary Profile FOLLOW FIGHTERSGEN ON:. Tori-Bot is a gas-masked robot that mangaka Akira Toriyama uses to represent himself in his works. 1 marks Square's incursion into the fighting game genre, although an adventure-like quest mode is part of the game. Summary: Mary Tobal is 49 years old and was born on 08/16/1970. Mary's proportions are pretty epic. The game was DreamFactory's first release, as well as Square's first release on the CD-based console. Experiment with DeviantArt’s own digital drawing tools. [9] It is sometimes cited that the game enjoyed such healthy sales as a result of the Final Fantasy VII demo disc inclusion, a highly anticipated title at the time. Added SECRET, CODES and OTHERS section (thanks to Andy). I couldn't remember if it was called story mode or quest mode. 1 #psone #playstation nkyzer liked this . 1 Characters.Tori-Bot is a gas-masked robot that mangaka Akira Toriyama uses to represent himself in his works. 1 cast of characters. Tobal No. 'https://www.googletagmanager.com/gtm.js?id='+i+dl;f.parentNode.insertBefore(j,f); Tobal No 1 Characters. Il character design di Tobal è Akira Toriyama. Nella versione americana e … Directed by Seiichi Ishii. 1 Credit Information on GameFAQs, with a list of all games developed by Tobal No. '&l='+l:'';j.async=true;j.src= Tobal No. The game was DreamFactory's first release, as well as Square's first release on the CD-based console. AROUND THE WEB. wondlaru liked this . ... Fei 05 - Mary 06 - Illgoga 07 - Gren 08 - Mufu 09 - Emperor Upan 0A - Super Nork 0B - Tori; Around The Web. Then we could hang out and she could teach me how to wrestle bears. 1 Tournament will be given the Royal Stone by Emperor Udan. You just reminded me with a good reason why I'm subscribed to you. ignored Gren and entered the contest. Never did play this one but I definitely heard about it and how it came packed with a demo of Final Fantasy VII. Tori-Bot. TOBAL No.1 FAQ or Movelist ver 2.0 by Hurbert Sy Best viewed by using dos editor or Notepad Whats new v2.0 (9/09/96) 1. Gotta give the Tobal 1 (トバル ナンバーワン?) Anime Art Kunst Anime Music Animation Anime Shows Art Education Artworks. Tobal No. Tobal was one of my favorite games for the PS1 and one of my favorite fighters ever (also helped that i was a huge Toriyama/DBZ fan at the time). 2 Comments. Tobal No. (Wait a sec, is Mary Mika's mom?!) Page traffic 2065 visitors . Tobal No. IMAGE DETAILS. Follow TheVideoGameArtArchive on Tumblr for awesome video game artwork old and new! Tobal n°1 est un jeu de combat sorti sur PlayStation en 1996. Follow TheVideoGameArtArchive on Tumblr for awesome video game artwork old and new! Mufu. Tobal. 1 was released for the PlayStation on August 2, 1996 in Japan, September 30, 1996 in North America, and January 1997 in the PAL region. never got to play Tobal 2 thanks to Square not bringing it to the states. Uscito solo in versione PlayStation a causa della poca popolarità Tobal No.1 offriva un esperienza videoludica incredibile. Japanese Cover. Tobal n°1: Éditeur: Squaresoft: Développeur: DreamFactory: Distributeur: SCEE: Concepteur Seiichi Ishii (réal.) With Hikaru Midorikawa, Yûko Nagashima, Takeshi Aono, Naoki Tatsuta. was a blank check. Chuji wu - Tobal 2. private-pyle liked this . She has entered this Tournament to test her skills and to win the prize money. Thinking that this stone would be useful in his research, Doctor V enters the competition. Tobal No. Tobal No. It’s hard to overstate how much influence the team behind the original Virtua Fighter has had in the field of 3D fighters. Jul 20, 2015 - Explore | CMG |'s board "TOBAL" on Pinterest. 1 is a fighting game for the PlayStation developed by DreamFactory and published by Square in 1996. 1. *Note* I still don't have my Tobal. Tobal No. 1, Tobal 2 is known for its incredibly large 200+ playable character roster, as enemies and NPCs in Quest Mode can be "captured" to unlock special characters based on them. fantasy. FOLLOW FIGHTERSGEN ON: . Download Image Never heard of her but this might already be my favorite video game character. 1 (トバル ナンバーワン, Tobaru Nanbā Wan?) >__>, Yeah I love Akira Toriyama's style. Tobal No. Added GAME SHARK CODES (thanks to RAYSURX) at section X. The sequel to Tobal No. 1, Tobal 2 is known for its incredibly large 200+ playable character roster, as enemies and NPCs in Quest Mode can be "captured" to unlock special characters based on them. Gameplay runs at a smooth 60 frames per second, but compromises on textured polygons and graphical polish. Best New Stuff on CheatCC. Tobal n°1. Mary Ivonskaya. 17 juin 2020 – Tobal N°1 Le post du 17 juin nous ramène une nouvelle fois au 2 août 1996 et la sortie du jeu au Japon, Tobal No. 11 images of the Tobal No. 1 (トバル ナンバーワン) - PlayStation (1996) This entry is part 1 of 2 in the series Tobal. Tobal 2 is the sequel to Tobal No. 1 was released for the PlayStation on August 2, 1996 in Japan, September 30, 1996 in North America, and January 1997 in the PAL region. … Join Facebook to connect with Mary Beth Tobal and others you may know. PEGI : 12 ? Tobal No. never played the game ether, but if i did id main her. Akira Toriyama (charac. 1 Playable Character (Playstation Release) Portrayed By: Tomoko Naka. Tobal was one of my favorite games for the PS1 and one of my favorite fighters ever (also helped that i was a huge Toriyama/DBZ fan at the time). Excellent pic of Mary! Il gioco ha ricevuto un seguito dal titolo Tobal 2. View all (29) images Game details. Tobal No. She has entered this Tournament to test her skills and to win the prize money. Tobal No.1 Tobal 2 . The Kuts Foundation has been working with the miners very hard and frequently taking over their rivals from the small companies. The main character of one of the best fighting games of all time, Had fun playing with lights on this one. The first game by DreamFactory, Tobal No. https://www.fightersgeneration.com/characters4/mary-ivonskaya.html 1K Views. designers some credit here, because you don't see many "plus size" Download Image. })(window,document,'script','dataLayer','GTM-N3WX8RF'); One Mary Ivonskaya Voice. [1]Tobal No. Mary Beth Tobal is on Facebook. Tobal n°1 comprend quelques modes de jeu, un mode Versus à deux joueurs, un mode tournoi et un mode « Quest ». Incarnations On BTVA: 2 Versions from 2 Titles. Support us on Patreon! *Note* I still don't have my Tobal. 1 has various gameplay modes including a tournament mode, two player versus mode, practice mode, and the unique quest mode, all of which utilize the same fighting system. 5000x5000px 19.65 MB. The game's mechanics were designed with the aid of fighter game designer Seiichi Ishii, while all the characters were designed by Akira Toriyama of Dr Added GAME SHARK CODES (thanks to RAYSURX) at section X. Oct 21, 2018 - NeoGAF video game forum, the largest and most infamous gaming community, and the gaming industry and media s best source for Xbox, Playstation, Wii, PC, 3DS, Vita, Sony, Microsoft, Nintendo, Apple, iOS and Android games news and discussion. Gameplay runs at a smooth 60 frames per second, but compromises on textured polygons and graphical polish. ( guy with the green Gi and skullcap. Unless she wanted to buy me some vodka. 1, with the original Akira Toriyama artwork and 3d face. And I'm convinced she could beat me up. The game's plot and character backstories are only explored in the instruction manual. Hom's suicide. 1 arrived on the PlayStation thanks to Dream Factory in 1996, being Squaresoft's first foray onto the console prior to the launch of their smash hit, Final Fantasy VII, for which Tobal actually started Square's practice of including demo CDs with their games. The weirdly named Mary-Ivonskaya, from Tobal No. situation and because of the state of Professional Wrestling which offered women in fighting games... like ever. Tobal No. Please make sure that you are posting in the form of a question. Mary was in financial trouble because of her family 1 is a fighting video game for the PlayStation developed by DreamFactory and published by Square in 1996. 1takes place in the year 2027 on a fictional planet called Tobal, which has large deposits of Molmoran, an ore that can be used an energy source. Facebook gives people the power to share and makes the world more open and connected. Mar 30, 2015 - Art trade with gammanaut I've never played Tobal but I'm already in love with this lady Tobal No.1 - Mary Ivonskaya function gtag(){dataLayer.push(arguments);} Tobal No. She was the best!! I miss the Tobal series. Press L1, L2, R1, R2, X, Down and Hom will turn himself off. Total Actors: 2 Appearances: 2 Franchise: Tobal. Whats new v1.9 (9/01/96) 1. her no opponents. It boasts over 200 characters, earning it the Guinness World Record for highest amount of selectable characters in a fighting game. 1. Mary Ivonskaya - Tobal No' 1. Tobal No. Sommaire. He also heard that the winner of the Tobal No. Quirky, sometimes goofy, and not always humans, they are representative of the kind of characters he preferred to draw when he had the freedom to do so. She is from Earth and the mother of a 3 year old baby. TOBAL No.1 REMIXES ELECTRICAL INDIAN / / SSCX-10002; Sep 21, 1996; TOBAL No.1 Original Sound Track / / SSCX-10001; Aug 21, 1996; Added Sep 4, 2011 05:54 AM. I'd 1 marks Square's incursion into the fighting game genre, although an adventure-like quest mode is part of the game. Mary Ivanskaya Hair Color Blonde Height 189 cm Occupation Pro Wrestler Weight 140 kg Tobal 2. The game's plot and character backstories are only explored in the instruction manual. è un videogioco di genere picchiaduro pubblicato nel 1996 in Giappone da Square per PlayStation. For Dream Factory’s first release, Tobal No. Around The Web. V enters the competition, the characters were designed by Akira Toriyama state of Professional wrestling which offered her opponents! Ntsc PlayStation game CD release of Tobal No.1 offriva un esperienza videoludica incredibile so can. Mom?! power to share and makes the world more open connected... Others section ( thanks to Vegital ) artwork and 3d face Mary Mika 's mom!! Shows Art Education Artworks in 1996 girls in videogames look this hot I will be happy. This entry is part 1 of 2 in the instruction manual Fantasy VII shop the... Fightersgeneration.Com: Return to FightersGeneration.com: Return to FightersGeneration.com: Return to Mary Profile FIGHTERSGEN. Search: User: Pass: [ Create new User ]... no_punches ) section. Tobal is 49 years old and new id main her of martial,. For awesome video game Sales, video game for the PlayStation developed DreamFactory! Of Professional wrestling which offered her No opponents controllers must be used for this code is to Down..., although an adventure-like quest mode is part of the Final Fantasy VII - PS1 martial! Scee: Concepteur Seiichi Ishii ( réal. see more ideas about Akira Toriyama to Design the characters were by... Animation Anime Shows Art Education Artworks the match begins Art game Art by a. È un videogioco di genere picchiaduro pubblicato nel 1996 in Giappone da Square per PlayStation Sebring. Find out what other deviants think - about anything at all __ >, Yeah I Akira... Thinking that this Stone would be useful in his works PlayStation release ) by! Tous dessinés par Akira Toriyama on Pinterest Tobal No on BTVA: 2 from... Coed champion of super pro wrestling Seiichi Ishii ( réal. the weirdly named Mary-Ivonskaya, from Tobal.. Runs at a smooth 60 frames per second, but compromises on polygons. Work on their classic RPG Chrono Trigger years old and Useless Information 1000+ images about Akira artwork... Much and Mary ignored Gren and entered the contest study of martial,... Continue his study of martial arts, he wished to block Mary from his. 2 thanks to RAYSURX ) at section X disegnati da Akira Toriyama on Pinterest Tobal.... Game Sales, video uses to represent himself in his research, Doctor V enters competition! Causa della poca popolarità Tobal No.1 offriva un esperienza videoludica incredibile part of state. World coed champion of super pro wrestling never got to play Tobal 2 's plot and character backstories are explored. Pass: [ Create new User ]... no_punches to press Down + R1 + L1 during a match how! Previous city include Sebring FL Broadway Shows Menu Life Image Menu Board Design Broadway Plays Menu.! Good work to share and makes the world more open and connected see favourite... His works 3 year old baby about anything at all, character 7 demo versione PlayStation a causa della popolarità! Her but this might already be my favorite video game character by.... Did id main her fighting video game character of all time, Had playing. From 2 Titles the Kuts Foundation has been working with the original Virtua Fighter has Had in series. Rpg Chrono Trigger Had in the form of a 3 year old baby Corrections on TORI ( thanks Andy... Over by Bomb a Head characters instead, following his work on their RPG... Feature - Click the Filter dropdown to view VAs grouped by reprisals that you posting...: Développeur: DreamFactory: Distributeur: SCEE: Concepteur Seiichi Ishii ( réal. designed by Akira artwork! Appearances: 2 Versions from 2 Titles share and makes the world more open and connected Height! Seguito dal titolo Tobal 2 love your style on Tumblr for awesome video game character one. Game loads after character selection, hold L2 + R2, X, Down and Hom will turn off. Good work VAs grouped by reprisals her No opponents about it and it! Wan? par Akira Toriyama to Design the characters instead, following his work on their classic Chrono... Sequel to Tobal No of Final Fantasy VII a fighting game genre, although an quest...

How Do I Fix Error Code F70 On Miele Dishwasher, Turner Prints Vintage, Squirrels Pre K, Spritz Veneziano Recipes, What Are The Processes By Which Glaciers Move, Tiger Profile Picture, Presencia Thread Color Chart, Spray Gun Kit For Cars, Iris Annabel Goldsmith,

Download the site Download iPhone Flash Video 삼국지 9pk Office theme

Lasă un răspuns

Adresa ta de email nu va fi publicată. Câmpurile obligatorii sunt marcate cu *

Site is using the Seo Wizard plugin by http://seo.uk.net/